osu file format v14

[General]
AudioFilename: Uraomote Fortune.mp3
AudioLeadIn: 1500
PreviewTime: 183154
Countdown: 0
SampleSet: Soft
StackLeniency: 0.7
Mode: 0
LetterboxInBreaks: 0
WidescreenStoryboard: 0

[Editor]
Bookmarks: 40647,55192,106101,215647
DistanceSpacing: 0.9
BeatDivisor: 4
GridSize: 4
TimelineZoom: 2

[Metadata]
Title:URAOMOTE FORTUNE
TitleUnicode:ウラオモテ・フォーチュン
Artist:Sakura Chiyo (CV:Ozawa Ari)
ArtistUnicode:佐倉千代 (CV:小澤亜李)
Creator:P A N
Version:10nya's Normal
Source:GEKKAN SHOJO NOZAKI KUN
Tags:ending asagi 10nya p_a_n 月刊少女野崎くん Monthly Girls' Nozaki-kun -_t_e_n_n_y_a_-
BeatmapID:501462
BeatmapSetID:210706

[Difficulty]
HPDrainRate:3
CircleSize:3
OverallDifficulty:4
ApproachRate:4
SliderMultiplier:1
SliderTickRate:1

[Events]
//Background and Video events
0,0,"BG2.jpg",0,0
//Break Periods
2,69944,79394
2,135399,137575
2,169737,179394
//Storyboard Layer 0 (Background)
//Storyboard Layer 1 (Fail)
//Storyboard Layer 2 (Pass)
//Storyboard Layer 3 (Foreground)
Sprite,Foreground,Centre,"SB\dialog5-tennya.png",320,240 M,0,76796,,310,235 S,0,76796,,0.6283872 F,0,76796,77023,0,1 F,0,77023,80432,1 F,0,80432,80660,1,0.03380646
//Storyboard Sound Samples

[TimingPoints]
654,454.545454545455,4,2,1,40,1,0
1563,-100,4,2,1,70,0,0
2472,-100,4,2,5,70,0,1
9744,-100,4,2,5,70,0,0
10654,-100,4,2,5,70,0,1
17926,-100,4,2,1,70,0,0
18835,-100,4,2,5,70,0,0
33835,-100,4,2,2,70,0,0
40654,-100,4,2,2,70,0,1
41563,-100,4,2,5,80,0,1
47472,-100,4,2,5,80,0,0
47926,-100,4,2,5,80,0,1
54744,-100,4,2,5,80,0,0
55199,-100,4,2,5,80,0,1
62017,-100,4,2,5,80,0,0
62472,-100,4,2,5,80,0,1
68381,-100,4,2,5,60,0,1
69744,-100,4,2,5,60,0,0
80654,-100,4,2,5,70,0,0
86335,-100,4,2,1,70,0,0
86449,-100,4,2,5,70,0,0
89972,-100,4,2,1,70,0,0
90085,-100,4,2,5,70,0,0
93608,-100,4,2,1,70,0,0
93722,-100,4,2,5,70,0,0
99290,-100,4,2,2,70,0,0
106108,-100,4,2,5,80,0,1
112926,-100,4,2,5,80,0,0
113381,-100,4,2,5,80,0,1
120199,-100,4,2,5,80,0,0
120654,-100,4,2,5,80,0,1
127472,-100,4,2,5,80,0,0
127926,-100,4,2,5,80,0,1
135199,-100,4,2,5,80,0,0
139290,-100,4,2,2,60,0,0
153381,-100,4,2,2,60,0,1
153835,-100,4,2,2,60,0,1
161335,-100,4,2,1,60,0,1
164744,-100,4,2,2,40,0,1
167926,-100,4,2,1,40,0,0
184290,-100,4,2,5,80,0,1
191108,-100,4,2,5,80,0,0
191563,-100,4,2,5,80,0,1
198835,-100,4,2,5,40,0,1
199744,-100,4,2,5,80,0,0
200199,-100,4,2,1,80,0,0
207926,-100,4,2,5,80,0,1
215199,-100,4,2,5,80,0,0
215654,-100,4,2,1,80,0,0

[Colours]
Combo1 : 174,255,94
Combo2 : 255,47,47
Combo3 : 255,128,64

[HitObjects]
156,232,654,6,0,B|190:259|239:251|264:216,1,100,0|0,3:0|3:0,0:0:0:0:
316,172,1563,2,0,B|350:145|399:153|424:188,1,100,8|8,0:0|0:3,0:0:0:0:
360,248,2472,6,0,L|344:352,1,100,4|8,0:0|0:0,0:0:0:0:
256,340,3381,2,0,L|240:241,1,100,2|8,0:0|0:0,0:0:0:0:
172,180,4290,2,0,B|199:152|239:145|272:156,1,100,2|8,0:0|0:0,0:0:0:0:
328,220,5199,2,0,B|356:247|395:254|428:243,1,100,2|8,0:0|0:0,0:0:0:0:
396,160,6108,5,2,0:0:0:0:
476,116,6563,2,0,B|448:70|389:57|345:84,1,150,8|0,0:0|0:0,0:0:0:0:
320,124,7472,2,0,L|212:116,1,100,8|2,0:0|0:0,0:0:0:0:
160,52,8381,6,0,B|130:83|126:128|144:163,1,100,8|2,0:0|0:0,0:0:0:0:
156,184,9063,2,0,B|166:199|169:216|168:232,1,50,8|0,0:3|0:0,0:0:0:0:
168,276,9517,2,0,B|166:294|160:310|151:324,1,50,0|4,0:0|0:0,0:0:0:0:
328,352,10654,6,0,L|432:320,1,100,4|8,0:0|0:0,0:0:0:0:
424,232,11563,2,0,B|399:200|392:160|400:124,1,100,2|8,0:0|0:0,0:0:0:0:
484,164,12472,1,2,0:0:0:0:
464,76,12926,2,0,B|436:36|436:36|332:36,1,150,8|0,0:0|0:0,0:0:0:0:
292,52,13835,1,8,0:0:0:0:
228,116,14290,5,2,0:0:0:0:
164,180,14744,2,0,B|164:281|164:281|204:309,1,150,8|0,0:0|0:0,0:0:0:0:
240,336,15654,2,0,L|352:328,1,100,8|2,0:0|0:0,0:0:0:0:
408,272,16563,5,8,0:0:0:0:
356,200,17017,1,2,0:0:0:0:
280,248,17472,1,8,0:0:0:0:
236,172,17926,1,2,0:0:0:0:
122,32,18835,6,0,B|86:16|46:20|15:38,1,100,4|2,0:0|0:0,0:0:0:0:
75,107,19744,2,0,B|108:125|145:122|175:105,1,100,2|2,0:0|0:0,0:0:0:0:
211,87,20426,1,0,0:0:0:0:
237,173,20881,2,0,L|233:280,1,100,0|0,0:0|0:0,0:0:0:0:
190,352,21790,2,0,B|225:369|263:366|294:348,1,100,0|0,0:0|0:0,0:0:0:0:
316,318,22472,6,0,L|321:209,1,100,2|2,0:0|0:0,0:0:0:0:
325,128,23381,2,0,L|328:76,2,50,2|0|2,0:0|0:0|0:0,0:0:0:0:
282,141,24063,2,0,B|240:160|191:148|161:113|155:73,1,150,0|2,0:0|0:0,0:0:0:0:
122,62,24972,2,0,B|135:118|133:174|117:225,1,150,0|2,0:0|0:0,0:0:0:0:
69,284,26108,6,0,B|103:308|148:306|178:282,1,100,2|2,0:0|0:0,0:0:0:0:
226,225,27017,2,0,L|226:169,2,50,2|0|2,0:0|0:0|0:0,0:0:0:0:
251,262,27699,2,0,B|299:233|361:250|389:296,1,150,0|2,0:0|0:0,0:0:0:0:
416,320,28608,2,0,B|396:266|402:210|428:164,1,150,0|2,0:0|0:0,0:0:0:0:
464,92,29744,5,2,0:0:0:0:
372,76,30199,1,2,0:0:0:0:
372,76,30426,2,0,B|326:107|263:91|236:45,1,150,0|2,0:0|0:0,0:0:0:0:
200,32,31335,2,0,B|228:82|221:141|189:183,1,150,0|2,0:0|0:0,0:0:0:0:
120,224,32472,2,0,B|98:225|78:234|64:248,1,50,2|0,0:0|0:0,0:0:0:0:
76,284,32926,2,0,B|61:313|56:344,2,50,2|0|4,0:0|0:0|0:0,0:0:0:0:
152,332,33835,5,8,0:0:0:0:
152,332,34063,2,0,B|193:352|242:339|270:302|272:261,1,150,0|8,0:0|0:0,0:0:0:0:
340,220,35199,2,0,B|300:177|231:181|196:228,1,150,,,0:0:0:0:
172,248,36108,2,0,B|132:265|88:248|68:213,1,100,0|8,0:0|0:0,0:0:0:0:
144,164,37017,6,0,B|168:120|144:64|144:64|180:72|212:56,2,150,4|4|4,0:0|0:0|0:0,0:0:0:0:
256,192,38835,12,4,40654,0:0:0:0:
386,166,41563,6,0,B|418:186|432:224|422:257,1,100,2|8,0:0|0:0,0:0:0:0:
371,325,42472,2,0,L|255:325,1,100,2|8,0:0|0:0,0:0:0:0:
224,324,43154,1,0,0:0:0:0:
180,324,43381,1,0,0:0:0:0:
112,268,43835,1,8,0:0:0:0:
192,224,44290,6,0,B|212:189|208:148|186:119,1,100,2|8,0:0|0:0,0:0:0:0:
148,120,44972,2,0,B|134:84|138:46|156:16,1,100,0|0,0:0|0:0,0:0:0:0:
196,24,45654,2,0,B|220:18|244:19|266:26,2,50,8|0|2,0:0|0:0|0:0,0:0:0:0:
241,104,46563,5,8,0:0:0:0:
292,177,47017,2,0,B|299:200|297:223|289:244,2,50,2|0|4,0:0|0:0|0:0,0:0:0:0:
241,104,47926,6,0,B|276:84|318:88|348:111,1,100,4|8,0:0|0:0,0:0:0:0:
371,132,48608,2,0,B|421:166|486:159|528:121,1,150,0|8,0:0|0:0,0:0:0:0:
510,223,49744,2,0,L|502:331,1,100,2|8,0:0|0:0,0:0:0:0:
470,354,50426,2,0,B|421:375|421:375|314:362,1,150,0|8,0:0|0:0,0:0:0:0:
275,288,51563,5,2,0:0:0:0:
220,216,52017,2,0,B|119:216|119:216|83:248,1,150,8|0,0:0|0:0,0:0:0:0:
51,281,52926,2,0,L|59:389,2,100,8|2|8,0:0|0:0|0:0,0:0:0:0:
40,191,54290,2,0,B|78:203|116:199|150:185,1,100,0|4,0:0|0:0,0:0:0:0:
223,158,55199,6,0,B|258:138|300:144|329:167,1,100,4|8,0:0|0:0,0:0:0:0:
272,236,56108,2,0,B|291:269|288:308|270:338,1,100,2|8,0:0|0:0,0:0:0:0:
197,282,57017,2,0,B|162:302|122:298|92:277,1,100,2|8,0:0|0:0,0:0:0:0:
89,239,57699,2,0,B|98:158|89:79,1,150,0|8,0:0|0:0,0:0:0:0:
174,57,58835,5,2,0:0:0:0:
244,113,59290,2,0,B|325:122|404:113,1,150,8|0,0:0|0:0,0:0:0:0:
436,100,60199,2,0,B|422:140|426:182|444:216,1,100,8|2,0:0|0:0,0:0:0:0:
466,283,61108,1,8,0:0:0:0:
466,283,61335,2,0,B|413:266|357:300|348:355,1,150,0|4,0:0|0:0,0:0:0:0:
259,341,62472,6,0,L|251:237,1,100,4|8,0:0|0:0,0:0:0:0:
208,225,63154,2,0,B|252:212|280:173|282:129|264:94,1,150,0|8,0:0|0:0,0:0:0:0:
184,136,64290,2,0,L|68:124,1,100,2|8,0:0|0:0,0:0:0:0:
48,96,64972,2,0,B|60:172|60:172|52:256,1,150,0|8,0:0|0:0,0:0:0:0:
32,284,65881,6,0,B|70:271|109:282|136:308,1,100,2|0,0:0|0:0,0:0:0:0:
148,340,66563,2,0,B|184:360|227:352|253:324,2,100,8|2|8,0:0|0:0|0:0,0:0:0:0:
188,260,67926,1,2,0:0:0:0:
256,192,68381,12,4,69744,0:0:0:0:
256,192,80654,12,0,82472,0:0:0:0:
200,300,84290,6,0,B|228:278|266:279|291:300,1,100,4|2,0:0|0:0,0:0:0:0:
336,316,84972,1,0,0:0:0:0:
404,256,85426,2,0,B|372:206|390:141|439:112,1,150,2|0,0:0|0:0,0:0:0:0:
468,104,86335,2,0,L|458:4,2,100,2|0|2,0:0|0:0|0:0,0:0:0:0:
484,195,87699,1,0,0:0:0:0:
484,195,87926,6,0,L|480:303,1,100,2|0,0:0|0:0,0:0:0:0:
408,352,88835,2,0,B|391:312|350:289|308:292|277:314,1,150,2|0,0:0|0:0,0:0:0:0:
200,272,89972,2,0,B|214:239|211:203|197:174,2,100,2|0|2,0:0|0:0|0:0,0:0:0:0:
120,232,91335,1,0,0:0:0:0:
120,232,91563,6,0,B|98:204|96:168|111:139,1,100,2|0,0:0|0:0,0:0:0:0:
152,60,92472,2,0,B|190:85|239:78|271:45|278:6,1,150,,,0:0:0:0:
348,68,93608,2,0,B|333:105|338:144|356:176,2,100,2|0|2,0:0|0:0|0:0,0:0:0:0:
372,28,94744,2,0,B|394:39|418:43|441:40,2,50,0|2|2,0:0|0:0|0:0,0:0:0:0:
284,8,95654,5,0,0:0:0:0:
284,8,95881,2,0,B|233:35|213:95|233:146,1,150,2|0,0:0|0:0,0:0:0:0:
248,176,96790,2,0,B|274:227|263:286|228:325,1,150,0|2,0:0|0:0,0:0:0:0:
154,359,97926,2,0,L|98:359,2,50,0|2|0,0:0|0:0|0:0,0:0:0:0:
234,317,98835,5,4,0:0:0:0:
317,283,99290,2,0,B|339:289|360:284|377:273,2,50,8|0|0,0:0|0:0|0:0,0:0:0:0:
325,193,100199,1,8,0:0:0:0:
256,134,100654,6,0,L|256:74,2,50,0|0|8,0:0|0:0|0:0,0:0:0:0:
192,197,101563,1,0,0:0:0:0:
195,283,102017,2,0,B|173:289|152:284|135:273,2,50,8|0|0,0:0|0:0|0:0,0:0:0:0:
199,372,102926,5,0,0:0:0:0:
199,372,103154,2,0,L|303:368,1,100,8|0,0:0|0:0,0:0:0:0:
312,325,103835,2,0,B|267:261|276:177|326:124,1,200,8|0,0:0|0:0,0:0:0:0:
283,53,105199,2,0,B|250:36|214:38|184:53,1,100,0|6,0:0|0:3,0:0:0:0:
100,72,106108,6,0,L|104:184,1,100,4|8,0:0|0:0,0:0:0:0:
112,260,107017,1,2,0:0:0:0:
160,336,107472,2,0,B|196:318|212:277|200:241,2,100,8|2|8,0:0|0:0|0:0,0:0:0:0:
70,331,108835,1,2,0:0:0:0:
25,252,109290,1,8,0:0:0:0:
70,174,109744,6,0,B|112:160|154:165|190:182,1,100,2|8,0:0|0:0,0:0:0:0:
210,188,110426,2,0,B|252:202|294:197|330:180,1,100,0|0,0:0|0:0,0:0:0:0:
342,159,111108,2,0,L|366:107,2,50,8|0|2,0:0|0:0|0:0,0:0:0:0:
393,233,112017,5,8,0:0:0:0:
341,307,112472,2,0,L|365:359,2,50,2|0|4,0:0|0:0|0:0,0:0:0:0:
292,230,113381,6,0,B|258:205|213:210|185:237,1,100,4|8,0:0|0:0,0:0:0:0:
163,255,114063,2,0,B|183:200|178:143|155:95,1,150,0|8,0:0|0:0,0:0:0:0:
162,18,115199,2,0,B|123:8|84:32|74:69,1,100,2|8,0:0|0:0,0:0:0:0:
64,100,115881,2,0,L|52:264,1,150,0|8,0:0|0:0,0:0:0:0:
100,326,117017,5,2,0:0:0:0:
168,264,117472,2,0,B|195:229|243:219|283:238|303:271,1,150,8|0,0:0|0:0,0:0:0:0:
332,292,118381,2,0,L|448:304,2,100,8|4|8,0:0|0:0|0:0,0:0:0:0:
297,263,119517,1,0,0:0:0:0:
284,219,119744,1,0,0:0:0:0:
266,130,120199,1,4,0:0:0:0:
179,104,120654,6,0,L|63:92,1,100,4|8,0:0|0:0,0:0:0:0:
40,116,121335,1,0,0:0:0:0:
56,160,121563,2,0,B|75:193|77:231|64:264,1,100,2|8,0:0|0:0,0:0:0:0:
128,320,122472,2,0,L|227:309,1,100,2|8,0:0|0:0,0:0:0:0:
268,332,123154,2,0,B|248:277|263:220|299:181,1,150,0|8,0:0|0:0,0:0:0:0:
376,224,124290,5,2,0:0:0:0:
356,136,124744,2,0,B|314:92|244:94|201:144|200:197,1,200,8|8,0:0|0:0,0:0:0:0:
176,220,125881,2,0,B|138:229|101:213|80:185,1,100,,,0:0:0:0:
56,156,126563,2,0,B|51:122|52:88,2,50,8|0|0,0:0|0:0|0:0,0:0:0:0:
88,244,127472,2,0,B|93:278|92:312,1,50,12|0,0:0|0:0,0:0:0:0:
116,332,127926,6,0,B|150:346|187:341|216:324,1,100,4|8,0:0|0:0,0:0:0:0:
248,300,128608,2,0,B|225:245|227:186|248:136,1,150,0|8,0:0|0:0,0:0:0:0:
220,64,129744,2,0,L|112:76,1,100,2|8,0:0|0:0,0:0:0:0:
84,104,130426,2,0,B|53:156|57:217|87:263,1,150,0|8,0:0|0:0,0:0:0:0:
96,288,131335,6,0,B|127:269|166:277|188:303,1,100,0|0,0:0|0:0,0:0:0:0:
212,340,132017,2,0,B|235:367|273:372|301:354,2,100,8|2|8,0:0|0:0|0:0,0:0:0:0:
272,272,133381,1,2,0:0:0:0:
256,192,133835,12,4,135199,0:0:0:0:
256,320,138835,5,4,0:0:0:0:
176,280,139290,2,8,B|203:228|271:210|325:244|341:294,1,200,,,0:0:0:0:
421,315,140654,1,2,0:0:0:0:
500,268,141108,2,8,B|484:236|444:220|416:224|416:224|396:120|416:104,1,200,,,0:0:0:0:
344,60,142472,5,2,0:0:0:0:
300,136,142926,2,0,B|268:120|252:80|256:52|256:52|152:32|136:52,1,200,8|8,0:0|0:0,0:0:0:0:
84,96,144290,1,2,0:0:0:0:
44,176,144744,2,0,B|104:200|144:160|144:160|156:256,1,200,8|8,0:0|0:0,0:0:0:0:
160,340,146108,5,2,0:0:0:0:
156,252,146563,2,8,B|218:205|301:208|359:251,1,200,,,0:0:0:0:
384,320,147926,1,2,0:0:0:0:
452,260,148381,2,8,B|483:195|479:123|448:64,1,200,,,0:0:0:0:
408,52,149517,1,0,0:0:0:0:
364,40,149744,6,0,B|252:40|252:40|240:68|212:72,2,150,2|2|4,0:0|0:0|0:0,0:0:0:0:
328,264,152244,2,0,B|306:264|287:256|272:244,1,50,,,0:0:0:0:
244,224,152699,2,0,B|238:203|240:182|246:163,1,50,8|4,0:3|0:0,0:0:0:0:
292,100,153381,5,4,0:0:0:0:
360,44,153835,2,0,B|384:72|387:109|372:139,2,100,2|2|2,0:0|0:0|0:0,0:0:0:0:
323,16,154972,1,0,0:0:0:0:
280,32,155199,2,0,B|243:47|204:42|172:24,2,100,2|2|2,0:0|0:0|0:0,0:0:0:0:
372,28,156563,1,2,0:0:0:0:
412,48,156790,6,0,B|431:86|428:128|411:163,1,100,,,0:0:0:0:
416,192,157472,1,2,0:0:0:0:
408,236,157699,1,0,0:0:0:0:
336,290,158154,2,0,L|340:348,2,50,0|2|0,0:0|0:0|0:0,0:0:0:0:
276,222,159063,5,0,0:0:0:0:
235,240,159290,1,2,0:0:0:0:
190,239,159517,2,0,B|153:251|114:232|99:199,1,100,,,0:0:0:0:
93,162,160199,2,0,B|100:131|121:106,1,50,4|0,0:0|0:0,0:0:0:0:
153,96,160654,6,0,L|265:96,1,100,4|2,0:0|0:0,0:0:0:0:
292,120,161335,2,0,B|340:152|405:135|432:84,1,150,2|8,0:0|0:0,0:0:0:0:
464,72,162244,2,0,L|468:228,1,150,2|8,0:0|0:0,0:0:0:0:
448,264,163154,1,2,0:0:0:0:
424,300,163381,1,0,0:0:0:0:
344,260,163835,2,0,B|327:223|331:182|350:149,1,100,8|2,0:3|0:0,0:0:0:0:
256,192,164744,12,2,167926,0:0:0:0:
256,192,180654,12,8,182472,0:0:0:0:
188,112,183835,6,0,L|200:212,1,100,8|4,0:3|0:0,0:0:0:0:
208,300,184744,2,0,B|241:283|278:285|308:300,1,100,8|2,0:0|0:0,0:0:0:0:
344,320,185426,1,0,0:0:0:0:
344,320,185654,2,0,B|377:337|414:335|444:320,2,100,8|2|8,0:0|0:0|0:0,0:0:0:0:
320,280,186790,1,0,0:0:0:0:
296,244,187017,1,2,0:0:0:0:
256,164,187472,1,8,0:0:0:0:
208,88,187926,6,0,B|174:72|138:75|108:92,1,100,2|8,0:0|0:0,0:0:0:0:
72,116,188608,2,0,B|65:151|76:184,1,50,0|2,0:0|0:0,0:0:0:0:
72,256,189290,1,8,0:0:0:0:
24,332,189744,2,0,B|60:353|105:345|131:317,1,100,2|8,0:0|0:0,0:0:0:0:
152,300,190426,2,0,B|203:273|262:277|308:304,1,150,0|12,0:0|0:0,0:0:0:0:
384,320,191563,6,0,B|403:290|406:255|396:224,1,100,4|8,0:0|0:0,0:0:0:0:
369,187,192244,1,0,0:0:0:0:
327,168,192472,1,2,0:0:0:0:
300,252,192926,1,8,0:0:0:0:
216,284,193381,6,0,L|116:284,1,100,2|8,0:0|0:0,0:0:0:0:
70,281,194063,1,0,0:0:0:0:
36,251,194290,1,2,0:0:0:0:
108,196,194744,1,8,0:0:0:0:
60,120,195199,6,0,B|95:94|144:100|171:131,1,100,2|8,0:0|0:0,0:0:0:0:
180,152,195881,2,0,B|233:176|295:148|312:92,1,150,0|8,0:0|0:0,0:0:0:0:
221,75,197017,2,0,L|201:29,2,50,2|0|2,0:0|0:0|0:0,0:0:0:0:
140,108,197926,2,0,L|116:60,2,50,2|0|4,0:0|0:0|0:0,0:0:0:0:
132,197,198835,6,0,B|189:206|224:149|224:149|324:161,1,200,8|4,0:1|0:0,0:0:0:0:
400,140,200199,6,0,B|409:178|394:215|365:236,1,100,2|2,0:0|0:3,0:0:0:0:
284,240,201108,2,0,L|176:240,1,100,2|2,0:0|0:3,0:0:0:0:
96,216,202017,2,0,B|87:254|102:291|131:312,1,100,2|2,0:0|0:3,0:0:0:0:
164,328,202699,1,0,0:0:0:0:
208,336,202926,1,2,0:0:0:0:
252,320,203154,2,0,B|271:311|286:296|296:279,1,50,0|2,0:0|3:0,0:0:0:0:
348,220,203835,6,0,B|369:186|364:145|341:117,2,100,2|2|2,0:0|0:3|0:0,0:0:0:0:
268,176,205199,2,0,B|234:156|193:161|165:184,2,100,2|2|2,0:3|0:0|0:3,0:0:0:0:
224,256,206563,1,2,0:0:0:0:
192,288,206790,2,0,B|158:320|106:319|71:286|64:246,1,150,0|8,0:0|0:3,0:0:0:0:
56,172,207926,6,0,B|60:129|87:95|123:80,1,100,4|8,0:0|0:0,0:0:0:0:
144,64,208608,1,0,0:0:0:0:
188,60,208835,1,2,0:0:0:0:
260,116,209290,1,8,0:0:0:0:
328,172,209744,6,0,B|363:198|410:193|439:165,1,100,2|8,0:0|0:0,0:0:0:0:
452,144,210426,1,0,0:0:0:0:
476,104,210654,1,2,0:0:0:0:
403,50,211108,1,8,0:0:0:0:
312,52,211563,6,0,L|204:52,1,100,2|8,0:0|0:0,0:0:0:0:
168,68,212244,1,0,0:0:0:0:
136,100,212472,1,2,0:0:0:0:
168,184,212926,1,8,0:0:0:0:
236,244,213381,6,0,B|260:248|284:245|305:236,1,50,2|0,0:0|0:0,0:0:0:0:
324,216,213835,2,0,B|338:198|343:176|340:156,1,50,2|0,0:0|0:0,0:0:0:0:
356,128,214290,2,0,B|357:105|349:84|335:69,1,50,2|0,0:0|0:0,0:0:0:0:
320,44,214744,2,0,B|300:33|277:31|257:37,1,50,8|2,0:0|0:0,0:0:0:0:
164,120,215654,5,2,0:0:0:0:
